» » Jack Teagarden And His Orchestra - Devil May Care / Night Of The Shalimar

Jack Teagarden And His Orchestra - Devil May Care / Night Of The Shalimar album flac

  • Performer: Jack Teagarden And His Orchestra
  • Album: Devil May Care / Night Of The Shalimar
  • FLAC: 1614 mb | MP3: 1760 mb
  • Released: 1940
  • Rating: 4.7/5
  • Votes: 574
  • Format: AA DTS AC3 ADX MOD VOC DMF
Jack Teagarden And His Orchestra - Devil May Care / Night Of The Shalimar album flac

Tracklist

A Devil May Care
B Night On The Shalimar

Credits

  • Vocals – Marianne*

Слушайте Jack Teagarden And His Orchestra и скачивайте бесплатно в формате mp3 прямо сейчас, без кодов, смс и регистрации.

Скачай Jack Teagarden and His Orchestra - Boogie Woogie mp3 ♫ 03:05 320 kbps . 3 m. .

Купите на выгодных условиях!

B2. Night On The Shalimar. Jack Teagarden, a first team player in any jazz band is featured singing and playing his trombone on recordings from the VARSITY label. This important Savoy issue restores to the catalogue all sixteen titles Jack Teagarden recorded for VARSITY, his label in 1940  . Jack Teagarden And His Orchestra. Varsity Sides ‎(LP, Comp, RE, RM). Savoy Jazz.

Jack Teagarden and His Orchestra The Birth of the Blues. Jack Teagarden & His Orchestra Someone Stole Gabriel's Horn. Jack Teagarden, Louis Armstrong and His Orchestra Rockin' Chair. Jack Teagarden & His Orchestra A Table in a Corner.

Devil May Care - Jack Teagarden and His Orchestra. Night On The Shalimar - Jack Teagarden and His Orchestra.

The Jazzman - Jack Teagarden, Jack Teagarden and His Orchestra. Father of Jazz Trombone - Jack Teagarden and His Orchestra. Jack Teagarden And His Orchestra Selected Hits Vol. 1 - Jack Teagarden and His Orchestra.

No release results found : showing artist results instead. The Jack Teagarden Collection 1928-52 ACROBAT 2013

flac" WAVE INDEX 01 00:00:00 TRACK 06 AUDIO TITLE "Night On The Shalimar" PERFORMER "Jack Teagarden And His Orchestra" INDEX 00 03:14:09 FILE "06. flac" WAVE INDEX 01 00:00:00 TRACK 13 AUDIO TITLE "St. James Infirmary" PERFORMER "Jack Teagarden And His Orchestra" INDEX 00 03:08:15 FILE "13. St. James Infirmary. flac" WAVE INDEX 01 00:00:00 TRACK 14 AUDIO TITLE "The World Is Waiting For The Sunrise" PERFORMER "Jack Teagarden And His Orchestra" INDEX 00 04:16:48 FILE "14.

Weldon Leo "Jack" Teagarden (August 20, 1905 – January 15, 1964) was a jazz trombonist and singer.

Related to Jack Teagarden And His Orchestra - Devil May Care / Night Of The Shalimar: