» » The Ventures - Best Hit 60

The Ventures - Best Hit 60 album flac

  • Performer: The Ventures
  • Album: Best Hit 60
  • FLAC: 1117 mb | MP3: 1672 mb
  • Released: 1994
  • Style: Surf
  • Rating: 4.2/5
  • Votes: 695
  • Format: VOC AA DTS TTA MP2 XM ADX
The Ventures - Best Hit 60 album flac

Tracklist

The Best Of The Ventures
1-1 Diamond Head
1-2 Sloughter On 10th Avenue
1-3 Caravan
1-4 Wipe Out
1-5 Bulldog
1-6 Journey To The Stars
1-7 Driving Guitars
1-8 Surf Rider
1-9 Cruel Sea
1-10 Lullaby Of The Leaves
1-11 Let's Go
1-12 Telstar
1-13 House Of The Rising Sun
1-14 Bumbble Bee Twist
1-15 Yellow Jacket
1-16 Blue Star
1-17 Pertidia
1-18 Apache
1-19 Pipeline
1-20 Walk Don't Run
The Best Of The Ventures Vol. 2
2-1 Walk Don't Run '64
2-2 Out Of Limits
2-3 Lap City
2-4 Barefoot Ventures
2-5 Pedal Pusher
2-6 Paradise A Go Go
2-7 Kickstand
2-8 Launch
2-9 Riders In The Sky
2-10 Black Eyes Twist
2-11 The Loco Motion
2-12 Love Potion No. 9
2-13 Oh, Pretty Woman
2-14 She's Not There
2-15 Needles & Pins
2-16 Twisted
2-17 Go Go Slow
2-18 Theme Of "Napoleon Solo"
2-19 Walk Rigth In
2-20 More
The Best Of The Ventures Vol. 3
3-1 A Taste Of Honey
3-2 Secret Agentman
3-3 Batman
3-4 Runaway
3-5 Tequila
3-6 Besame Mucho
3-7 Stranger On The Shore
3-8 Let There Be Drums
3-9 Green Onions
3-10 Honky Tonk
3-11 The Twist
3-12 My Bonny Rise
3-13 Lucille
3-14 Limbo Rock
3-15 Red River Rock
3-16 Satisfaction
3-17 I Feel Fine
3-18 Night Train
3-19 Twilight Zone
3-20 The Fugitive

Companies, etc.

  • Manufactured By – Tone Co. Ltd.

Notes

3 Cd's Housed in sigle Jewel Case with Japanese linner comes in a cardboard box.

GL-316 The Ventures Best Hit 20
GL-320 The Ventures Best Hits vol.2
GL-321 The Ventures Best Hit 20 Vol.3

Barcode and Other Identifiers

  • Barcode: T4961590014135

Скачать mp3 бесплатно The Ventures Best Of Vol 1 Full Album Album Complet.

The Ventures - 2018 - The Ventures Best Hit Collection 30 (Japan) 01 Walk Don't Ru. p3 02 Memphis. Download via torrent Download via magnet.

The Ventures have released over two hundred albums beginning with Walk Don't Run (1960), and over 60 singles. The original US albums and singles are indicated by their catalog numbers and Billboard (BB) and Cashbox (CB) chart peak positions (Note: There were separate Cashbox charts for stereo and mono albums until 1965. (1965) The Ventures in Japan. 1965) The Ventures in Japan, Vol. 2. (June 1965) The Ventures On Stage (BB CB - Dolton BLP 8035/BST 8035. 1966) All About the Ventures.

Heartbreaker/Living Loving Maid - Led Zeppelin 237. Spanish Harlem - Ben E. King 238. Walk-Don't Run - Ventures 239. Mother-In-Law - Ernie K. Doe 240. These Arms Of Mine - Otis Redding 241.

The Ventures: все альбомы, включая The Ventures Greatest Hits, I Walk The Line and Other Country Classics, Ventures и другие. 2019 All Tracks Remastered. I Walk The Line and Other Country Classics. The Ventures Play Telstar, The Lonely Bull.

EAC extraction logfile from 16. June 2018, 21:43. EXE Additional command line options : -6 -V -T "ARTIST %artist%" -T "TITLE %title%" -T "ALBUM %albumtitle%" -T "DATE %. 22 AUDIO TITLE "Secret Agent Man" PERFORMER "The Ventures" INDEX 00 54:28:46 INDEX 01 54:29:60 TRACK 23 AUDIO TITLE "Guitar Boogie Shuffle" PERFORMER "The Ventures" INDEX 00 56:31:53 INDEX 01 56:33:04 TRACK 24 AUDIO TITLE "Caravan" PERFORMER "The Ventures" INDEX 00 59:05:38 INDEX 01 59:06:60 TRACK 25 AUDIO TITLE "Diamond Head".

Ventures-the ventures best hits 30-JAPAN shm-cd E25 2. 8$. Hit That Jive Jack: The Earliest Recordings(CD, Aug-1990, Grp Joint Venture)(CD) . 9$. YOU PICK 45rpm last name artist . .adminas on UFO – Live Sightings 2016 (box set). Adrian on UFO – Live Sightings 2016 (box set). adminas on Joe Pizzulo – All The Best (2006). lowe on Joe Pizzulo – All The Best (2006). Poison – Poison’s Greatest Hits 1986-1996.

Almost 40 Ventures' albums charted, and 17 hit the Top 40. And though the group's popularity in America virtually disappeared by the 1970s, their enormous contribution to pop culture was far from over; the Ventures soon became one of the most popular world-wide groups, with dozens of albums recorded especially for the Japanese and European markets. They toured continually throughout the 1970s and '80s - influencing Japanese pop music of the time more than they had American music during the '60s. The Ventures put their indelible stamp on each style of '60s music they covered, and they covered many - twist, country, pop, spy music, psychedelic, swamp, garage, TV themes. In the '70s, the band moved on to funk, disco, reggae, soft rock and Latin music.